Mr & Mrs Smith 2005 Hindi Dual Audio BluRay 720p [Hindi Org-English] 1GB

…..:: Basic Info ::…..

Format : Matroska
Format version : Version 4 / Version 2
File size : 1.28 GiB
Duration : 2 h 5 min
Overall bit rate : 1 459 kb/s
Movie name : Mr & Mrs Smith 2005

Video
ID : 1
Format : AVC
Format/Info : Advanced Video Codec
Format profile : [email protected] Format settings : CABAC / 8 Ref Frames
Format settings, CABAC : Yes
Format settings, ReFrames : 8 frames
Codec ID : V_MPEG4/ISO/AVC
Duration : 2 h 5 min
Bit rate : 1 200 kb/s
Width : 1 280 pixels
Height : 544 pixels
Display aspect ratio : 2.35:1
Frame rate mode : Constant
Frame rate : 23.976 (24000/1001) FPS

Audio #1
ID : 2
Format : AAC
Format/Info : Advanced Audio Codec
Format profile : LC
Codec ID : A_AAC-2
Duration : 2 h 5 min
Bit rate : 128 kb/s
Channel(s) : 2 channels
Channel positions : Front: L R
Sampling rate : 48.0 kHz
Frame rate : 46.875 FPS (1024 SPF)
Compression mode : Lossy
Delay relative to video : -21 ms
Stream size : 115 MiB (9%)
Title : Stereo
Language : Hindi

Audio #2
ID : 3
Format : AAC
Format/Info : Advanced Audio Codec
Format profile : LC
Codec ID : A_AAC-2
Duration : 2 h 5 min
Bit rate : 128 kb/s
Channel(s) : 2 channels
Channel positions : Front: L R
Sampling rate : 48.0 kHz
Frame rate : 46.875 FPS (1024 SPF)
Compression mode : Lossy
Delay relative to video : -21 ms
Stream size : 115 MiB (9%)
Title : Stereo
Language : English

…..:: Screenshooot ::…..

…..:: Direct Download Single Links ::…..

BDUpload Link

Indishare Link

Desiupload Link

Clicknupload Link

Uploadbaz Link

Cloudyfiles Link

Uptobox Link

Filescdn Link

Download4U.In Entertainment Team [DET]

You may also like