Prometheus 2012 Hindi Dual Audio 720p BluRay 850MB x264 Esub Hindi+English MKV

…..:: Basic Info ::…..

Format : Matroska

Format version : Version 4 / Version 2

File size : 871 MiB

Duration : 2 h 3 min

Overall bit rate : 984 kb/s

Movie name : Prometheus 2012

Video

Format : AVC

Format/Info : Advanced Video Codec

Codec ID : V_MPEG4/ISO/AVC

Duration : 2 h 3 min

Bit rate : 809 kb/s

Width : 1 280 pixels

Height : 528 pixels

Display aspect ratio : 2.40:1

Frame rate mode : Constant

Frame rate : 23.976 (24000/1001) FPS

Color space : YUV

Chroma subsampling : 4:2:0

Bit depth : 8 bits

Scan type : Progressive

Bits/(Pixel*Frame) : 0.050

Stream size : 716 MiB (82%)

Title : GOPISAHI

Writing library : x264 core 125 r2200 999b753

Audio #1

Format : AAC

Format/Info : Advanced Audio Codec

Duration : 2 h 3 min

Bit rate : 80.5 kb/s

Channel(s) : 6 channels

Channel positions : Front: L C R, Side: L R, LFE

Sampling rate : 44.1 kHz

Frame rate : 43.066 FPS (1024 SPF)

Compression mode : Lossy

Delay relative to video : -125 ms

Stream size : 71.3 MiB (8%)

Title : GOPISAHI

Language : Hindi

Audio #2

Format : AAC

Format/Info : Advanced Audio Codec

Duration : 2 h 3 min

Bit rate : 92.0 kb/s

Channel(s) : 2 channels

Channel positions : Front: L R

Sampling rate : 48.0 kHz

Frame rate : 46.875 FPS (1024 SPF)

Compression mode : Lossy

Delay relative to video : -125 ms

Stream size : 81.4 MiB (9%)

Title : GOPISAHI

Language : English

…..:: Screenshooot ::…..

…..:: Direct Download Single Links ::…..

BDUpload Link

Indishare Link

Desiupload Link

Clicknupload Link

9xupload Link

Uploadbaz Link

Cloudyfiles Link

Uptobox Link

Uppit Link

Filescdn Link

Download4U.In Entertainment Team [DET]

You may also like